The OpenNET Project / Index page

[ новости /+++ | форум | wiki | теги | ]

Как вырезать звуковую дорожку из видео в отдельный файл
Эта простая функция реализуется через ffmpeg :

   ffmpeg -i input.avi -vn output.mp3

или для wmv:

   ffmpeg -i input.wmv -vn -acodec copy output.wma

преобразуем wma в mp3

   mplayer -quiet -vo null -vc dummy -af volume=0,resample=44100:0:1 -ao pcm:waveheader:file=output.wav output.wma
   lame -V0 -h -b 192 --vbr-new output.wav output.mp3
 
23.06.2009 , Автор: Kroz , Источник: http://www.kharkovforum.com/showpos...
Ключи: mplayer, ffmpeg, convert, audio, video
Раздел:    Корень / Пользователю / Запись и обработка звука

Обсуждение [ Линейный режим | Показать все | RSS ]
  • 1.1, Аноним (-), 18:15, 23/06/2009 [ответить] [﹢﹢﹢] [ · · · ]  
  • +/
    Да сколько уже можно... Надо демуксить видеофайлы, а не заниматься фигнёй с ffmpeg или mencoder
     
     
  • 2.2, Артм (?), 20:50, 23/06/2009 [^] [^^] [^^^] [ответить]  
  • +/
    Да ладно, я не занимаюсь мультимедиа, и для меня такая статья полезна.
    У вас есть вариант лучше?
     
     
  • 3.3, ponimas (?), 22:33, 23/06/2009 [^] [^^] [^^^] [ответить]  
  • +/
    у меня - есть
    avidemux
     
     
  • 4.5, аноним (?), 08:09, 24/06/2009 [^] [^^] [^^^] [ответить]  
  • +/
    >avidemux

    тормозное поделие. оно только файлы парсит секунд по сто. те файлы, которые в virtualdub открываются за считаные мгновения

     
     
  • 5.6, Аноним (-), 08:32, 24/06/2009 [^] [^^] [^^^] [ответить]  
  • +/
    Гонево, даже портированная на вин морда на кути авидемукса, открыла за считанные 2 секунды авишку, и корректно демуксила почти 2х-часовой ac3 поток за 35 секунд. Заметьте, никаких перекодировок
     
     
  • 6.9, аноним (?), 09:39, 24/06/2009 [^] [^^] [^^^] [ответить]  
  • +/
    >портированная на вин морда на кути авидемукса, открыла за считанные
    >2 секунды авишку, и корректно демуксила почти 2х-часовой ac3 поток за
    >35 секунд. Заметьте, никаких перекодировок

    Complete name                    : Ghost in the shell 2.0 [BDRip].avi
    Format                           : AVI
    File size                        : 1.45 GiB
    Duration                         : 1h 23mn
    Overall bit rate                 : 2 498 Kbps
    Writing application              : VirtualDubMod 1.5.10.2 (build 2542/release)

    Video
    Format                           : MPEG-4 Visual
    Format profile                   : Streaming Video@L1
    Format settings, BVOP            : Yes
    Format settings, QPel            : No
    Format settings, GMC             : No warppoints
    Format settings, Matrix          : Default (MPEG)
    Codec ID                         : XVID
    Codec ID/Hint                    : XviD
    Duration                         : 1h 23mn
    Bit rate                         : 2 041 Kbps
    Frame rate                       : 23.976 fps
    Resolution                       : 24 bits
    Scan type                        : Progressive
    Stream size                      : 1.19 GiB (82%)

    Audio
    Format                           : AC-3
    Duration                         : 1h 23mn
    Bit rate mode                    : Constant
    Bit rate                         : 448 Kbps
    Channel(s)                       : 6 channels
    Channel positions                : Front: L C R, Surround: L R, LFE
    Sampling rate                    : 48.0 KHz
    Stream size                      : 267 MiB (18%)
    Alignment                        : Split accross interleaves

    Индексирование, переупорядочивание в Avidemux 2.4.4 заняло 68 секунд
    Скорость открытия файла в VirtualDub визуально замерить не представляется возможным ввиду крайне высокой скорости процесса

     
     
  • 7.10, Аноним (-), 10:06, 24/06/2009 [^] [^^] [^^^] [ответить]  
  • +/
    >Индексирование, переупорядочивание

    Это вам зачем? задача дорогу выдрать

     
     
  • 8.13, аноним (?), 11:27, 24/06/2009 [^] [^^] [^^^] [ответить]  
  • +/
    дорогу можно выдрать другими способами не обязательно стрелять из пушки по воро... текст свёрнут, показать
     
  • 7.11, Аноним (-), 10:15, 24/06/2009 [^] [^^] [^^^] [ответить]  
  • +/
    Всё понял, типичный эникейшик, струхнувший на первом же диалоге. На предложение You should use Tool->Rebuild frame. Do it now? ответьте нет
     
     
  • 8.12, аноним (?), 11:26, 24/06/2009 [^] [^^] [^^^] [ответить]  
  • +/
    ну-ну, вам оттуда виднее сделайте так и получите перемешанные i-b кадры при нави... текст свёрнут, показать
     
     
  • 9.14, Аноним (-), 12:02, 24/06/2009 [^] [^^] [^^^] [ответить]  
  • +/
    Речь была про демукс, пишу уже 3 раз, чтобы в результате получить аудиодорожку, ... текст свёрнут, показать
     
     
  • 10.18, kiev (?), 10:57, 15/05/2011 [^] [^^] [^^^] [ответить]  
  • +/
    расскажите подробно,пожалуйста,как этой прогой вырезать ненужную звуковую дорожк... текст свёрнут, показать
     

  • 1.4, anon (?), 07:50, 24/06/2009 [ответить] [﹢﹢﹢] [ · · · ]  
  • +/
    все проще
    mplayer kino.avi -dumpaudio -dumpfile audio.bla
     
     
  • 2.7, Аноним (-), 08:44, 24/06/2009 [^] [^^] [^^^] [ответить]  
  • +/
    >все проще
    >mplayer kino.avi -dumpaudio -dumpfile audio.bla

    −dumpaudio (MPlayer only)
    Dumps raw compressed audio stream to ./stream.dump (useful with MPEG/AC-3, in most other cases the resulting file will not be playable).

    >resulting file will not be playable

    Очень смущает, а что будет если в ави был положен aac или dts поток? А потому, как уже писал, для целей выдирания из видеофайлов аудиодорог, только их демукс. mkv - mkvtoolnix, avi - тот же avidemux, mp4 - mp4box, ogm - ogmtools. А потом уже дальше редактируете, конвертите или припиливаете аудиодороги к другим файлам, но, прощу заметить, нетронутые, или ещё каким образом покоцанные дороги.

     
     
  • 3.16, i (??), 09:42, 07/07/2009 [^] [^^] [^^^] [ответить]  
  • +/
    aac или dts поток вполне нормально дампится, проблем замечено не было.
    -dumpaudio использую для выдирания дорожек с DVD(скрипт DVD->x264->mkv), но думаю с avi mkv итд будет работать.
     

  • 1.15, anon (?), 13:13, 27/06/2009 [ответить] [﹢﹢﹢] [ · · · ]  
  • +/
    Зачем дампить? mplayer умеет и демуксить, правда в WAV:

    mplayer -ao pcm -vo null <file.avi>
    В каталоге появится audiudump.wav, декодирует все дороги, а не только mpeg/ac3.

     
     
  • 2.17, i (??), 09:44, 07/07/2009 [^] [^^] [^^^] [ответить]  
  • +/
    в если это DTS, что будет?
     

  • 1.19, Sergey (??), 23:35, 20/12/2011 [ответить] [﹢﹢﹢] [ · · · ]  
  • +/
    Программ наделали уже много. Для mkv лучше MKVmerge GUI http://chajnikam.ru/computer/57-kak-redaktirovat-mkv-video-fayl.html
    а для avi используем virtualdubmod http://chajnikam.ru/computer/58-kak-redaktirovat-avi-fayly.html
     


     Добавить комментарий
    Имя:
    E-Mail:
    Заголовок:
    Текст:




    Спонсоры:
    Слёрм
    Inferno Solutions
    Hosting by Ihor
    Хостинг:

    Закладки на сайте
    Проследить за страницей
    Created 1996-2019 by Maxim Chirkov
    Добавить, Поддержать, Вебмастеру